handwritingaone@gmail.com   +91 89047 93133     
02
MAY
2021

The Gentlemen 2019 Free Torrent Download

Posted By :
Comments : 0

Health

17 Seeds 47 Peers

The Gentlemen 2019

The Gentlemen 2019 Free Torrent Download

Clean torrent DOWNLOAD torrent

The Gentlemen 2019

Director: Guy Ritchie

Authors: Guy Ritchie (screenshot), Guy Ritchie (short story)

Celebrities: Matthew McConaughey, Charlie Hunnam, Michelle Dockery

Plot / Story:

The US foreign minister is trying to sell his lucrative cannabis empire in London by plotting, conspiracy, bribery and betrayal in an attempt to steal his domain from under him.

Great

Full name:

Format: AVI

Format / Description: Video audio interacts

File size: 938 MiB

Duration: 1 53 min

Total bit rate: 1,154 kbps

Quotes: (HI)

Video

ID: 0

Format: MPEG-4 Visual

Format Profile: Advanced

Format settings, BVOP: 2

Structure settings, QPel: No.

Format settings, GMC: No stretch sections

Format settings, Matrix: Basic ()

Codec ID: XVID

Codec ID / Note: XviD

Duration: 1 53 min

Minimum rate: 1013 kbps

Width: 720 pixels

Height: 304 pixels

Display Ratio :: 1

Frame rate: (24,000 / 1001) fps

Color Space: YUV

Small Chroma Sample: 4: 2: 0

Depth: 8 bits

Scan Type: Ongoing

Squeezing method: Loss

Bits / (pixel * frame):

Stream size: 824 MiB (88%)

Writing library: XviD 64

Sound

ID: 1

Format: MPEG audio

Format version: Version 1

Structure format: column 3

Codec: 55

Codec ID / Tip: MP3

Duration: 1 53 min

Low-level mode: constant

Minimum rate: 128 kbps

Route: 2 ways

Sample frequency: kHz

Squeezing method: Loss

Stream size: 104 MiB (11%)

Sync: Fixed on interactive

Interaction, duration: 24 ms (video frame)

Screenshots:

Please keep climbing as long as possible

Or at least 1: 1

Enjoy Peeps

  1. The Gentlemen 2019 Banunu hd Full Movie Torrent Download

Download Bittorrent

28 1 Rating

About the Author

Leave a Reply

*

captcha *

error: Content is protected !!
Web Design MymensinghPremium WordPress ThemesWeb Development