handwritingaone@gmail.com   +91 89047 93133     
20
SEP
2021

Fast Furious 9 2021 Movie Torrent Download

Posted By :
Comments : 0

Health

14 Seeds 49 Peers

Fast Furious 9 2021

Fast Furious 9 2021 Movie Torrent Download

Clean torrent DOWNLOAD torrent

Fast Furious 9 2021

Dom and crew must face an international terrorist who turned out to be Dom and Mias ’estranged brother.

Tenth installment Fast Sage.

Torrent downloaded from ProstileX

Visit us for more exclusive things

File: CAM NEV SOURCE CLEAN SomeCoontS

: 2 8 min

File: GiB

: AND YOU

Video: 2096 kbps

Video

Video: MPEG-4 Visual Advanced

Appearance :: 1

: 720×320 pixels

Frame: FPS

Audio

Audio: MPEG audio layer 3

: 2 channels

Sampling: kHz

: 233 kb / s

Genre: action, thriller, crime
Director: Justin Lin
Cast: Vin Diesel, Michelle Rodriguez, Jordana Brewster, John Cena, Charlize Theron
Synopsis: Dominic Toretto leads a quiet life off the net with Letti and her son, little Brian, but they know that danger always lurks on their peaceful horizon. This time, that threat will force the House to face the sins of its past if it wants to save those it loves most. His team team up to stop a devastating conspiracy led by the most skilled killer and high-performance driver they’ve ever met – a man who is also Domino’s abandoned brother Jakob.
COVER
MEDIA DATA
Tank = Matroska (mkv)
Duration = 02:08
File size = 848 MiB
–Video
Codec data = AVC | V_MPEG4 / ISO / AVC
Resolution = 720×432
Show AR = | 5: 3
Bit rate = Frame rate = VFR Color space = IUV
Chromium subsampling = 4: 2: 0
Encoder = k264 – core 157
–Audio
Codec data = AAC | A_AAC-2
Channels = 2
Baud rate = Sampling rate = kHz
Language = English
SCREENS

Visit us =

In general

Full Name: Fast and Furious 9 (2021) 1080p F9 English HEVC HDCAM k264 AAC Author

Format: Sailor

Version format: version 4 / version 2

File size: GiB

Duration: 2 11 min

Total transfer speed: 1491 kb / s

Coded date: UTC 2021-05-22 18:48:30

Writing application: mkvmerge (‘Over the Horizon’) 64bit

Writing library: libebml + libmatroska

Attached files:

Video

ID: 1

Format: HEVC

Format / Information: Highly efficient video encoding

Format profile: @ Main

Codec ID: V_MPEGH / ISO / HEVC

Duration: 2 11 min

Download speed: 1363 kbps

Width: 1920 pixels

Height: 800 pixels

Screen size: 1

Frame speed mode: constant

Frame speed: FPS

Color space: IUV

Chromium subsample: 4: 2: 0

Bit depth: 8 bits

Bits / (pixel frame *):

Stream size: GiB (91%)

Writing Library: k265 + 1-169e76b6bbcc: 8bit + 10bit + 12bit

English

Default: yes

Forced: No.

Audio

ID: 2

Format: AAC

Format / Information: Advanced audio codec

Profile format: LC

Codec ID: A_AAC

Duration: 2 11 min

Download speed: 125 kbps

Channels: 2 channels

Channel position: Front: L R

Sampling frequency: kHz

Frame rate: FPS (1024 SPF)

Compression mode: Loss

Stream size: 118 MiB (8%)

English

Default: yes

Forced: No.

  1. Fast Furious 9 2021 tpb Toffee Free Torrent Download

Download Bittorrent

25 2 Rating

About the Author

Leave a Reply

*

captcha *

error: Content is protected !!
Web Design MymensinghPremium WordPress ThemesWeb Development